Edge of Tomorrow 2014 1080p WEBRip (Torrent)


Info:


[mediainfo]



Format : AVI
Format/Info : Audio Video Interleave
Format profile : OpenDML
File size : 2.54 GiB
Duration : 1h 53mn
Overall bit rate : 3 204 Kbps
Movie name : RARBG.COM - Edge.of.Tomorrow.2014.1080p.WEBRip.HC.XviD.MP3-RARBG
Writing library : VirtualDub build 35491/release
Comment : RARBG.COM - Edge.of.Tomorrow.2014.1080p.WEBRip.HC.XviD.MP3-RARBG



Video
ID : 0
Format : MPEG-4 Visual
Format profile : Simple@L5
Format settings, BVOP : No
Format settings, QPel : No
Format settings, GMC : No warppoints
Format settings, Matrix : Default (H.263)
Codec ID : XVID
Codec ID/Hint : XviD
Duration : 1h 53mn
Bit rate : 2 998 Kbps
Width : 1 920 pixels
Height : 800 pixels
Display aspect ratio : 2.40:1
Frame rate : 25.000 fps
Color space : YUV
Chroma subsampling : 4:2:0
Bit depth : 8 bits
Scan type : Progressive
Compression mode : Lossy
Bits/(Pixel*Frame) : 0.078
Stream size : 2.37 GiB (94%)
Writing library : Lavc55.73.102



Audio
ID : 1
Format : MPEG Audio
Format version : Version 1
Format profile : Layer 3
Mode : Joint stereo
Mode extension : MS Stereo
Codec ID : 55
Codec ID/Hint : MP3
Duration : 1h 53mn
Bit rate mode : Constant
Bit rate : 192 Kbps
Channel(s) : 2 channels
Sampling rate : 44.1 KHz
Compression mode : Lossy
Stream size : 156 MiB (6%)
Alignment : Aligned on interleaves
Interleave, duration : 26 ms (0.65 video frame)
Interleave, preload duration : 522 ms
Writing library : LAME3.99.5

Screens





Download Via Torrent Here!

Share This Article Facebook +Google Twitter Digg Reddit