Humpty Sharma Ki Dulhania - (2014) -- Non-Retail - DVDRip - x264 - Hindi - AC3 -







IMDB Rating: 6.1/10.0



GENRE: Comedy | Drama | Romance


General
Unique ID : 226670498980748035100516549618119147540 (0xAA87267034A3984BBA3478D5EFCB0014)
Complete name : Humpty Sharma Ki Dulhania (2014) - 1CD - DVDSCR-Rip - Hindi - x264 - MP3 - Mafiaking - [D3Si MaNiaCs].mkv
Format : Matroska
Format version : Version 4 / Version 2
File size : 705 MiB
Duration : 2h 11mn
Overall bit rate : 751 Kbps
Movie name : Humpty Sharma Ki Dulhania (2014) - 1CD - DVDSCR-Rip - Hindi - x264 - MP3 - Mafiaking - [D3Si MaNiaCs]
Encoded date : UTC 2014-07-11 15:21:22
Writing application : mkvmerge v6.9.1 ('Blue Panther') 32bit built on Apr 18 2014 18:15:44
Writing library : libebml v1.3.0 + libmatroska v1.4.1


Video
ID : 1
Format : AVC
Format/Info : Advanced Video Codec
Format profile : High@L2.1
Format settings, CABAC : Yes
Format settings, ReFrames : 4 frames
Codec ID : V_MPEG4/ISO/AVC
Duration : 2h 11mn
Bit rate : 669 Kbps
Width : 640 pixels
Height : 272 pixels
Display aspect ratio : 2.35:1
Frame rate mode : Constant
Frame rate : 23.976 fps
Color space : YUV
Chroma subsampling : 4:2:0
Bit depth : 8 bits
Scan type : Progressive
Bits/(Pixel*Frame) : 0.160
Stream size : 616 MiB (87%)
Title : Mafiaking
Language : Hindi
Default : Yes
Forced : No


Audio
ID : 2
Format : MPEG Audio
Format version : Version 1
Format profile : Layer 3
Mode : Joint stereo
Mode extension : MS Stereo
Codec ID : A_MPEG/L3
Codec ID/Hint : MP3
Duration : 2h 11mn
Bit rate mode : Constant
Bit rate : 80.0 Kbps
Channel(s) : 2 channels
Sampling rate : 32.0 KHz
Compression mode : Lossy
Stream size : 75.1 MiB (11%)
Title : Mafiaking
Writing library : LAME3.99r
Language : Hindi
Default : Yes
Forced : No


SAMPLE WITH IN TORRENT











Download Link:
Share This Article Facebook +Google Twitter Digg Reddit