Rio 2 2014 720p SUB HTC x264 AC3 (Torrent)







Format : Matroska 
File size : 1.84 GiB 
Duration : 1h 32mn 
Overall bit rate : 2 851 Kbps 
Encoded date : UTC 2010-02-22 21:41:31 
Writing application : mkvmerge v5.9.0 ('On The Loose') built on Dec 9 2012 15:37:01 
Writing library : libebml v1.3.0 + libmatroska v1.4.0 
Video #1 
ID : 1 
Format : AVC 
Format/Info : Advanced Video Codec 
Format profile : High@L3.1 
Format settings, CABAC : Yes 
Format settings, ReFrames : 4 frames 
Muxing mode : Container profile=Unknown@3.1 
Codec ID : V_MPEG4/ISO/AVC 
Duration : 1h 32mn 
Bit rate : 2 602 Kbps 
Nominal bit rate : 2 650 Kbps 
Width : 1 280 pixels 
Height : 528 pixels 
Display aspect ratio : 2.40:1 
Frame rate : 25.000 fps 
Resolution : 8 bits 
Colorimetry : 4:2:0 
Scan type : Progressive 
Bits/(Pixel*Frame) : 0.154 
Stream size : 1.68 GiB (91%) 
Writing library : x264 core 116 r2074 2641b9e 

Audio #2 
ID : 2 
Format : AC-3 
Format/Info : Audio Coding 3 
Codec ID : A_AC3 
Duration : 1h 32mn 
Bit rate mode : Constant 
Bit rate : 192 Kbps 
Channel(s) : 2 channels 
Channel positions : L R 
Sampling rate : 44.1 KHz 
Stream size : 127 MiB (7%)

Screen Shorts:








Download Link:
Download Here

Trailer

Share This Article Facebook +Google Twitter Digg Reddit